Car Games Racing Games Truck Games Parking Games Bike Games Driving Games 3D Car Simulator Stunt Car Challenge 3 Mad Truck Challenge Special Rally Racer Slot Car Racing Mad Day Burnout Drift: Hilltop Monsters' Wheels Special Burnout Drift Kart Wars. WKOK Staff | March 31, 2020 | PSP helicopter used in arrest of armed man in Snyder County. To narrow down your search, use the filters. The most often cited example of helicopter patrol effectiveness is "Project Sky Knight" in Lakewood, Calif. Take flight as you leave the airport, here at Silvergames. 1986 O’day 222 Sailboat. No interim withdrawal of Passport is permitted once an application is lodged irrespective of the processing duration. The Bunbury-based helicopter was officially launched in late January 2016, with RAC as the sponsor. Hi Pppl ! Just a question for the aviation pros on here, I installed the flight radar 24 app on my android phone and was watching all the live aircraft movements and landings at Manchester airport during the night and heard the police helicopter flying over towards the direction of the airport so I switched on my app to see if it was showing its flightpath on the screen but there was no trace. The helicopter was able to follow the vehicle both south and west of Winnipeg. THE police helicopter was used to track a stolen car last night during a chase through Perth's south-eastern suburbs. Parking is available at the airport. We strongly encourage you to be thorough and accurate when submitting the report. Price History. Here's what you need to apply. Some people might use the device to do something illegal. Take a gander of rare shots of young David Bowie, Jackie Kennedy, Elvis with his parents, and not one, not two - but three Elvira pics. February 8, 2020 11:06 AM. LEGO Cherry Picker Set 42088 Instructions. Dana Dubinsky is a health and science editor. A scanner is a radio receiver that can automatically tune, or scan, two or more frequencies, stopping when it finds a signal on one of them and then continuing to scan other frequencies when the initial transmission ceases. SELINSGROVE - A Selinsgrove man was arrested after a domestic incident escalated into forcing a lockdown of the Selinsgrove State Center, and a state police helicopter was called to the scene. Police from Western Road and Public Order Services are reminding motorists of the importance of driving to the speed limit after two drivers were detected travelling 50km/h above the limit on the Ridgley Highway on the North West Coast. Check airport arrivals and departures status and aircraft history. For discussion of budget or entry level radios such as Baofeng, Wouxun, Puxing and other radio communications designated as commercial but not targeted for Amateur or GMRS. Tragedy on the North Coast of NSW this morning. Join Napster and play your favorite music offline. The most popular night vision goggle format is AN/PVS7 developed for the US military and deployed in various demanding environments worldwide. In 2011, Victoria Police provided one of its helicopters to assist the Western Australia Police with the Commonwealth Heads of Government Meeting held in Perth in 2011. There are two confirmed fatalities," Virginia State Police said in a statement on Facebook. Dedicated channel Perth railways police and Transperth rail operations. A seven strong team from the WA Tactical Response Group and a forensic officer flew from Perth to Kununurra to assist the Kimberley police in the manhunt. I just happened to finish sorting a file by ICAO when I heard the helicopter outside. Live streaming, video hosting, transcoding, monetization, distribution & delivery services for businesses. License Plate Capture Cameras, License Plate Recognition, LPR Camera. AOPA Credit Card. on Sunday, Dec. 6:27 PM: New Era Park: 3B : Helicopter assisting units on a Traffic Stop. Toy Vehicles & Playsets. Tracking Police Scotland UK Police Forces. As a precautionary health measure for our support specialists in light of COVID-19, we're operating with a limited team. Police have so far investigated 120 homicides in 2020, a 49 percent increase from the same time last year, authorities said. RadioReference Discussion Forums. A 50-year-old Spearwood man has been asked to surrender his vehicle. By Danielle Cave , Fergus Ryan & Vicky. Throughout the bushfire season DFES operates a fleet of aircraft to boost firefighting capability. by KTUL staff. Available in selected stores. You Paid For It. States with Live Feeds. 91 out of 5. Please rate this page. Met Police Helicopter 2014-03-16, 00:49. Visiting extraordinary destinations throughout Western Australia, an ultimate experience is waiting for you with Corsaire Aviation. National Police Air Service website. Listen to Police In Helicopter by John Holt - Reggae Anthology: Henry "Junjo" Lawes - Volcano Eruption. SHOP The Empire. Live 5 Weather Skycams. Fortnite is always free, always evolving multiplayer game for PlayStation 4, Xbox One, Nintendo Switch, PC/Mac and iOS/Android. Throughout the bushfire season DFES operates a fleet of aircraft to boost firefighting capability. In the last three months, officers seized in the region of £25 million worth of controlled drugs, including heroin, cannabis as well millions of pounds. The cause. It's not known how many people were on board the plane — identified as a six-seater. Check out the latest on Penrith roads. Shortly before cocktail hour on Monday, the thrum-thrum-thrum of a helicopter could be heard above the winding lanes of the 2,000-year-old historic center. What's Driving You Crazy? SCDOT Traffic Cameras. The British Army comprises of 112,000 experienced, committed and highly skilled Regular and Reserve soldiers. But it has developed an intense following akin to fans of any other sport or team. India map with live traffic, location search, maps directions. Shop now ». , a county deputy…. Results began filtering in shortly after 8:00 p. Why is it it has suddenly appeared? It is always in the sky yet I never see it on FR24. Police in Tasmania are using a surveillance helicopter to track down people camping in remote locations in violation of coronavirus lockdown laws. In 2017, the air ambulance service ceased with Ambulance Victoria releasing a helicopter for dedicated police duty. 2 and MRR for X-Plane 11 now in development!. on Sunday, Dec. Circle - Country Music & Lifestyle. UK Police Helicopter Captures 'UFO' on Film Raw video: June 08/08: released footage: Welsh police confirmed that one of their helicopter crews had spotted an "unusual aircraft" flying over Cardiff earlier this month. 003 - Police, Fire and Ambulance Aircraft 004 - EMS, Municipal, TV Shows, and others 005 - Trucks 005 - Buses. 12), a helicopter crashed into a wooded area near a residence on Old Farm Road. List of tracking aircraft of Australia Police. 2008 Gradywhite 336 Canyon. Lots of new and exciting feeds coming online! If you would like to expand coverage in your region of the world please contact us. In the last three months, officers seized in the region of £25 million worth of controlled drugs, including heroin, cannabis as well millions of pounds. Buy a flight ticket, make hotel reservation and rent a car. , a county deputy…. SHOP The Empire. A lot of our gifts for women go down the romantic and sentimental route. 9 % Test CRC 485F9AEF Copy CRC 485F9AEF Copy OK Track 2 Filename C:\Documents and Settings\HP_Owner\My Documents\oink it\Police In Helicopter\02 - John Holt - Private. io Grand Prix 3D Monster Truck: Skyroads Desert Worms Shift to Drift Mad Day 2 Super Police Pursuit Red Driver 2 Dream Car Racing Super Drift 3. Get your 3-Day weather forecast for Sedona, AZ. 20th Mounted Rifles. Helicopter Watch will give details of operations Cleveland Police's new. We know how much visitors to Activity Village enjoy free printables, so we update this section often! Find all sorts of kids printables and family printables here, with more added all the time. Widely respected for their pursuit story content that follows the mantra of 'Think outside the box'. This is the first time I have seen it on the map. Drones Direct specialise in Camera Drones, Racing Drones, Commercial Drones and Drone Components to build your own Drone. MAN HOSPITALISED AFTER TUMBI UMBI CRASH. Officers then deployed AIR1, the Winnipeg police helicopter, to assist with tracking the vehicle. Built 2011. LIFETIME GUARANTEE. Breaking news from Perth and Western Australia, plus a local perspective on national, world, business and sport news. City of Santa Maria, 110 E. The CROSS Gris-Nez also sent a Dauphin helicopter from the French Navy stationed at Le Touquet to fly over the area and ensure that no other boat was in difficulty at sea. 2 Military Base Management. Frustrated folk woken up by the police helicopter can now 'cop' a look at what the fuss is about thanks to new updates on the web. Kyle Savoia has less than two years on the job but being an athlete and coming from a family of police. Police incident reports are generally public record, but the way a police station disseminates public information varies from force to force and even by department. Phoenix police, who operate five patrol helicopters and four planes, flew aircraft approximately 1,600 hours, costing $79,000 in fuel in 2015, according to data obtained by The Arizona Republic. As one of the most popular kids TV shows worldwide Paw Patrol has kids enthralled in the antics and adventures of the Paw Patrol pups, Marshall, Zuma, Rubble, Rocky, Everest, Skye and Robodog all have their part to play in the Paw Patrol Adventures. The brand remains, to this day, leader in the conception of sport and lifestyle sunglasses, ski goggles and ski and cycling helmets. Get your 3-Day weather forecast for Sedona, AZ. 2018 Supra Sl550 Roush Supercharged Wakeboard Wakesurf Wake Boat. #N#Listen by State. By Wesley Hudson. Meineke Car Care Center. Check airport arrivals and departures status and aircraft history. A scanner is a radio receiver that can automatically tune, or scan, two or more frequencies, stopping when it finds a signal on one of them and then continuing to scan other frequencies when the initial transmission ceases. Nadya Suleman, aka Octomom, took the world by storm in January 2009 when she had an exceptionally large number of children on her own – eight to be exact – in one pregnancy. 1986 O’day 222 Sailboat. DJI is the world's leading producer of camera drones and stabilizers. that David passed away in Perth on Saturday 25th November 2017 from complications with pneumonia. In 2011, Victoria Police provided one of its helicopters to assist the Western Australia Police with the Commonwealth Heads of Government Meeting held in Perth in 2011. Woodbridge Reports. Information depicted includes helicopter routes, four classes of heliports with associated frequency and lighting capabilities, NAVAIDS, and obstructions. Listen to Police In Helicopter by John Holt. He is believed to frequent the northern suburbs of Perth. New WA Police Dauphin 2 helicopter (VH-WPX) to enter service on 31 July 2012 July 30, 2012 March 24, 2013 David Eyre enter service , Eurocopter AS365N3+ Dauphin 2 , police helicopter , VH-WPX , WA Police , WA Police Air Wing. The helicopter was flying over the southern Perth suburb about 12. The Richest Pro Wrestlers of All Time. Tags: None. THE police helicopter was used to track a stolen car last night during a chase through Perth's south-eastern suburbs. A second body has been pulled from the sea near Kent, police have confirmed. Depending on which page you have selected, flightradar. The medal recognises the service of Australian Defence Force members on special operations as declared by the Chief of the Defence Force from 1 November 2019. We focus on six key sectors: Citizen Services, Defence, Health, Immigration, Justice and Transport. Cantaloupes also have antioxidants that help in getting rid of internal toxins. This is the first time I have seen it on the map. com is your best guide to find free downloads of safe, trusted, and secure software, utilities, and games. At the Spectator’s Politician of the Year Awards the guest of honour, Penny Mordaunt, showed that hell hath no fury At the Spectator’s. Police, TRG officers descend on Cannington area. 344 Likes, 8 Comments - Ouachita Baptist University (@ouachita) on Instagram: “From the “Ouachitonian”: “If you’re just nice to the kids, they’ll believe you’re a princess if you…”. The information one can find through mobile phone number tracking is priceless. 21st King George V's Own Horse (Central India Horse. Try the Sunglasses for 100 days. Police in Tasmania are using a surveillance helicopter to track down people camping in remote locations in violation of coronavirus lockdown laws. You can also reach the OPP by calling 1 888 310-1122 (toll-free in Ontario). No pictures or media on this site may be reproduced without prior permission. The Emergency Rescue Helicopter Service, known as RAC Rescue, provides two dedicated emergency rescue helicopters serving Western Australia. Tayside Police Car South Street Perth Perthshire Scotland Western Australia Police Helicopter BK117B-2 Landing at Police Academy Open. Police Helicopter Stops Train From Colliding With Car Stalled on Tracks The flight crew flew ahead of the train, lowered the helicopter and used the spotlight in a crisscross pattern to signal the. 1mi (5km) in unobstructed areas that are free from interference. QUALITY! You and your boat deserve the best boat wrap kit that money can buy. We've jewellery and glassware that can be personalised with her name and a special message as well as make-up and cosmetics that will help her feel as special as she is. A review of the Winnipeg Police Service's helicopter has concluded that AIR1 is a good use of police resources but more could be done to better track the demand for the chopper. A better airport for everyone. A MAJOR search operation is underway for a man believed to have fallen in the River Tay in Perth. Police have charged a teenage girl and are appealing for information following an alleged. A police officer checks a pedestrian's paperwork outside a Banque Populaire bank branch during coronavirus lockdown in Toulouse, France, on Monday, April 27, 2020. Alabama Alaska Arizona Arkansas California Colorado Connecticut Delaware District of Columbia Florida Georgia Guam Hawaii Idaho Illinois Indiana Iowa Kansas Kentucky Louisiana Maine Maryland Massachusetts Michigan. The SPA provides Forensic Services to support operational policing. Findster Duo+ is the only GPS Pet Tracker to allow true Real-Time Tracking, using the most reliable and precise technology to monitor your dog or cat during your outdoor adventures. While emergency search and rescue is the core business of RAC Rescue it can also be used by authorised. that David passed away in Perth on Saturday 25th November 2017 from complications with pneumonia. Wednesday, January 22nd 2020. Sponsor: Motor Accident Commission. Explore detailed aircraft and flight data and playback historical flights. Covering NYC, New Jersey, Long Island and all of the greater New York City area. AIRPORT STANDARD TIME: 16:43. POLICE have launched a new system which will allow residents to track what a new multi-million pound helicopter is up to. ke brings the Latest News from Kenya, Africa and the World. As a result, many. "Thank you for creating such a terrific game!" Thanks for all the fun!". Police Scotland is launching a campaign to deter the public from buying potentially stolen goods, which fund serious and organised crime. This is the answer to the age-old question, “Taser vs stun gun. A police spokesperson said Wilson, 29, was last seen. Create an account or log into Facebook. Read more Salary. The search for the 85-year-old was short-lived however after he was traced safe and well within. Know something? Call Crime Stoppers - 1800 333 000 or. Panthers sign DL Zach Kerr, bring back WR DeAndrew White Photos of Zach Kerr through the years Free Agency Tracker. Covering NYC, New Jersey, Long Island and all of the greater New York City area. Apart from an eight day absence between October 13 – 21, when she departed and returned via the northernmost Shark Monitoring Network (SMN) receiver at Ocean Reef, WA018 was subsequently detected by SMN, Ocean Tracking Network (OTN) and Department of Fisheries. Dur- the Tracker was an interesting experience and I appreciated. "Tasmania Police officers conducting aerial surveillance around the state, including on the North-West Coast located several campsites where people were directed to leave and return home. IATA: PER / ICAO: YPPH. The Dollar Vigilante. See our add-ons currently in development - 747 Classic, 146 Professional, F28 Fellowship, A300B4-200 and more! New Falke SF-25 touring motor glider for Aerofly FS 2! New Avro Vulcan B Mk. The SPA provides Forensic Services to support operational policing. AOPA Credit Card. Click here to reveal NJ traffic and accident MAP. Glasgow News Glasgow Live traffic and weather: M8, M74, M77, M80 and ScotRail news. QUALITY! You and your boat deserve the best boat wrap kit that money can buy. Available Online. A better airport for everyone. Jan 2 World War II: The U. 94 million reside in the Perth Metropolitan Region. Shop now ». You Paid For It. This empowers people to learn from each other and to better understand the world. My Maps makes it easy for you to create beautiful maps and share them with others. Children travelling alone. The police department will rely on a helicopter and about 1,200 security cameras for elevated views of the packed area. Available in selected stores. Find 468 used Lamborghini as low as $55,000 on Carsforsale. As a result, many. Musical Instruments for Kids. 9 % Test CRC 485F9AEF Copy CRC 485F9AEF Copy OK Track 2 Filename C:\Documents and Settings\HP_Owner\My Documents\oink it\Police In Helicopter\02 - John Holt - Private. The search for the 85-year-old was short-lived however after he was traced safe and well within. 2 Military Base Management. WebTrak uses information from air traffic control secondary surveillance radars to display aircraft movements: within 50 kilometres of the airport; up to 30 000 feet above mean sea level. This empowers people to learn from each other and to better understand the world. Monday, 24 February 2020 - 3:03 pm. Photo via Sydney Morning Herald. In December 2003 RAC became the sponsor of the service and the Perth-based helicopter was officially named RAC Rescue. Liquidity Services (NASDAQ: LQDT) operates a network of leading e-commerce marketplaces that enable buyers and sellers to transact in an efficient, automated environment offering over 500 product categories. Available in selected stores. NPAS provide borderless air support to the 46 police forces of England and Wales 24/7/365 from our national network of bases. Tragic news has come out of the North Coast of NSW this morning after a Japanese surfer aged 41 has died after reportedly having both legs bitten off by what is believed to have been a Great White Shark at 7. 01 02 03 04 05 06 07 08 09 10 11 12 13 14 15. Petroleum Helicopters Flight Status (with flight tracker and live maps) -- view all flights or track any Petroleum Helicopters flight. If you are keen to progress your career with an organisation that makes a real difference to all Australians, apply now with RFDS Central. Western Australia Police Force. The Western Australia Police Force, colloquially WAPOL, provides police services throughout the state of Western Australia, an area of 2. Donnybrook and Bridgetown police joined forces with Perth detectives in an attempt to arrest a man wanted over armed robbery, robbery, burglary and property offences. The Special Enforcement Unit (SEU) was created in 1980 to provide air support to all public safety operations in New Hampshire and respond to requests for service from federal, state, county, and local law enforcement or public safety agencies. CNET Downloadsearch. com in the spotlight. Dresses & Playsuits. Explore detailed aircraft and flight data and playback historical flights. A police helicopter was used to stop a fleeing motorcyclist in Christchurch. com is your best guide to find free downloads of safe, trusted, and secure software, utilities, and games. News headlines from Gold Coast. 01 02 03 04 05 06 07 08 09 10 11 12 13 14 15. Crime Stoppers. Choose among the most stylish brands like Ray-Ban, Oakley, Versace & Prada. Police cleared of wrongdoing. While this list may not be all inclusive, it is meant to expand on the. Infants don't get their own seat on the plane, they will travel on your lap. Helicopter tracking a kite flyer who was flying at 800 ft and was advising it was too high. AECOM is the world’s premier infrastructure firm, partnering with clients to solve the world’s most complex challenges and build legacies for generations to come. Why is it it has suddenly appeared? It is always in the sky yet I never see it on FR24. Hobart - the gateway to Tasmania. Emergency Services Expo - Clarence Valley. The brand remains, to this day, leader in the conception of sport and lifestyle sunglasses, ski goggles and ski and cycling helmets. The authority on Formula One, F1, MotoGP, WRC, IndyCar, F2, WEC, Le Mans, NASCAR and more. Police In Helicopter Lyrics: Yes boss, yes boss, yes boss, yes boss / Police in helicopter, a search fi marijuana / Police man in the streets, searching fi collie weed / Soldiers in the field. Get in the know before you go, and take the pain out of travel by avoiding traffic jams as they happen. But it has developed an intense following akin to fans of any other sport or team. Western Australia Police reported they received a call just after 1:30 pm from the 80-year-old's concerned husband when she did not come home from her walk. AIRPORT LIVE TRACKER. Airport Madness: World Edition is one of our top sellers. The wacky world of professional wrestling is not for everyone. Airliners are considered here aircraft that are capable of carrying at least 12 passengers. SHOP The Empire. news The South Australian police force has gone to market to buy a fleet of aerial drones to assist it with surveillance operations, as controversy continues to swirl around the use of the technology in Australia's skies and whether it endangers residents and/or invades their privacy. Collected Times aggregates headlines from around the world and from across the political spectrum, grouping them by subject, to give you a more holistic view of current events. As the official provider of Armed Forces resettlement, we organise around 70 Employment Fairs, Industry Awareness Days and Company Presentations at Regional Resettlement Centres (RRCs) around the UK and in Germany every year. Welcome to My Activity. If you need help with a product whose support you had trouble reaching over the phone, consult its product-specific Help Center. Visit covid19. a Western Australia Police helicopter and an additional civilian helicopter are. During the ceremony, the Dallas Police Choir will perform and the names of the fallen officers are read, also known as the "Roll Call of Honor. Some people might use the device to do something illegal. It is understood that it was searching the river area between North Muirton and Perth city centre. Caught On Camera. Custom shirts make great personalized gifts for family and friends! Not only can you design your own T-shirt, you can also sell your custom T-shirts and other creations by signing up for a free T-shirt shop with Spreadshirt. Jan 1 7th Orange Bowl: #9 Mississippi State beats #13 Georgetown, 14-7. Fun Stuff Tantrum. Michael McGannon, 73, was last seen at his home in the North Muirton area of the town at. 21st (Empress of India's) Lancers. Emergency Services Expo - Clarence Valley. Sheffield Wednesday today said they will work closely with police in a bid to root out the fans responsible for the crowd trouble that marred yesterday's relegation decider against Crystal Palace. A bruise should not be the requirement for evidence of parental abuse. ke brings the Latest News from Kenya, Africa and the World. He was a Rifleman, Platoon Medic and Section 2IC. CHC provides unmatched helicopter services that enable our customers to reach beyond - to work in remote and challenging destinations that limit others - and come home safely. WPRI 12 Eyewitness News on WPRI. Breaking news from Perth and Western Australia, plus a local perspective on national, world, business and sport news. The vehicle had been tracked from Northamptonshire after it was spotted. A chilling home security video has surfaced that captures the sound of the helicopter crash that killed retired Los Angeles Lakers star Kobe Bryant, his 13-year-old daughter and seven others en. As different forms of crime evolve, law enforcement is forced to evolve right alongside it, implementing the latest technology to efficiently apprehend criminals. Perth Amboy police officer to be honored for rescuing sleeping man from train tracks. It wasn't because of a lack of desire or an injury, though. And as part of a new contract - another chopper will be added to the "eye in the sky" fleet. Each city, town, county and state has it's ow. There is nothing that compares to holding your newborn for the first time. In 2011, Victoria Police provided one of its helicopters to assist the Western Australia Police with the Commonwealth Heads of Government Meeting held in Perth in 2011. You Paid For It. Public records, court records and even genealogy files can be found through mobile tracking. The police were keeping an eye on the Trastevere neighborhood, where smoke billowed from the windows of a jail as. ke brings the Latest News from Kenya, Africa and the World. QUALITY! You and your boat deserve the best boat wrap kit that money can buy. Internal inflammation allows fat to become much more comfortable in our bodies. Police searching for a missing Perth pensioner have recovered a man's body from the River Tay in Fife. West Australian police at Halls Creek search for James Annetts and Simon Amos. Controversial Charleston school board bill sparks arguments during community meeting. 20-year-old arrested in connection with shooting in front of Bay Shore home. The Victoria Police Air Wing is the police aviation unit of the Victoria Police operating rotary wing aircraft in metropolitan Melbourne and providing a service to the whole of Victoria. Available Online. Best sellers See more. #N#Flight information is provided by FlightStats, and is subject to the FlightStats. A City of Perth spokesman confirmed to The Australian that its 12-month facial recognition trial across East Perth had begun, and that police have had access. Durham police said the driver refused to stop and instead sped onto Highway 401. Available in selected stores. The 57 year old man from Hobart sustained a leg injury whilst transiting the Ironbound Range. LOS ANGELES -- Los Angeles police are increasingly relying on technology that not only tells patrol officers where crime is most likely to occur but also identifies and keeps track of ex-cons and. Get it now for a deal! We've added emergencies to both volumes of our bestseller, Airport Madness 3D. Safety & Health. One particular mammoth specimen was recently resurrected from an ice tomb in Siberia. Home to approximately 100,000 residents. It's hard to imagine a more appropriate place to celebrate Presidents Day than here, at the Mount Rushmore National Memorial. Vancouver Airport Authority Commits to Net-Zero Carbon Emissions by 2050 March 10, 2020; Industry-led Partnership to Advance the Availability of Sustainable Aviation Fuel in Canada November 26, 2019. Morgan was driving a 2004 Chevrolet, which collided with a 2015 Ford F-250 pickup truck, police said. The following postings are intended to raise public and personal awareness of workplace hazards, fatal incidents and occupational health and safety resources to assist with vigilance about workplace safety, and preventing workplace injuries and fatalities. Lots of new and exciting feeds coming online! If you would like to expand coverage in your region of the world please contact us. As this option is not available to police helicopters, it is better for them to fly in circles. Anyone suggesting or promoting violence in the comments section will be immediately banned, permanently. "Fire in Forrestfield, Perth WA. From $521/person. Video shows the helicopter dropping water and then circling as a crowd gathers underneath and smoke rises into the sky. 1st Special Service Battalion. 6 new covid-19 positive cases reported on tuesday council meeting | 5/4/20 (audio only) 6 new covid-19 positive cases reported on monday 28 new covid-19 positive cases reported in monroe township over two-day period. CHC provides unmatched helicopter services that enable our customers to reach beyond - to work in remote and challenging destinations that limit others - and come home safely. Nadya Suleman, aka Octomom, took the world by storm in January 2009 when she had an exceptionally large number of children on her own – eight to be exact – in one pregnancy. The Police DEPARTMENTS (plural) are all very separate. Last night we told you about some strange orange-reddish lights seen in the night sky. The Home Office and the police have set out a package of measures which will increase transparency around chief officer employment. See more ideas about Royal australian navy, Navy ships and Australian defence force. By Wesley Hudson. 20-year-old arrested in connection with shooting in front of Bay Shore home. , the Dauphin helicopter located a boat with 12 migrants, 11 men and one woman, tow nautical miles off Calais. Deezer: free music streaming. Get in touch with us through the Westpac App. 4 million, of which 1. Noise complaints about the police Eagle helicopter in Christchurch have skyrocketed. Lewisville, TX, is a dynamic suburban community in the thriving North Texas region. A helicopter, police from three different areas and a tracker dog were part of a manhunt through Kirup last Thursday night. FlightGlobal is the global aviation community’s primary source of news, data, insight, knowledge and expertise. —Advertisement— Prev 6 of 30 Next. North American Aerospace Defense Command will conduct an air defense exercise over Louisiana Nov. 13 Oct 2019 - Explore michaeltabor12's board "Australian Warships" on Pinterest. A busy Perth street has been shut down by emergency services due to a reported ongoing incident at a shop. A man was arrested and charged for leading law enforcement on a pursuit through the Gold Coast on May 31, with Queensland Police dispatching a helicopter to track the stolen car. Don’t worry if the terms are new to you, flying is incredibly easy to learn and master. But if you're shopping for a girl who likes a laugh don't worry, because we've lorry loads of presents. Aviall offers more than 2 million parts, including extensive lines of aviation oils, tires, batteries, hardware and more. Quora is a place to gain and share knowledge. UK Emergency Aviation > UK & Ireland Police Helicopter Operations A-M: Photographs & Use Of Media. Deezer: free music streaming. It circled that area at least 6 times at a very low altitude—around 875 feet. Once the car was reported missing and the tracking device activated, police deployed a helicopter, an unmarked car and two tracking vehicles to make the. The brand remains, to this day, leader in the conception of sport and lifestyle sunglasses, ski goggles and ski and cycling helmets. Hexbug Mouse Remote Control. Media Releases Man charged by WA Joint Anti-Child Exploitation Team. Local time 3:34 PM aest 7 May 2020 Membership 865,269 registered members 12,058 visited in past 24 hrs 1,152 members online now 1,702 guests visiting now. by KTUL staff. We thought that there was maybe an accident at a nearby crag. If you want to move the airspace, one click is enough. Things are changing regularly at HBA. The most often cited example of helicopter patrol effectiveness is "Project Sky Knight" in Lakewood, Calif. The National Basketball Association said Tuesday night's Los Angeles Lakers game versus the Los Angeles Clippers has been postponed following the helicopter crash in California that killed nine. Vancouver Airport Authority Commits to Net-Zero Carbon Emissions by 2050 March 10, 2020; Industry-led Partnership to Advance the Availability of Sustainable Aviation Fuel in Canada November 26, 2019. POLICE have launched a new system which will allow residents to track what a new multi-million pound helicopter is up to. The municipal election was on Oct. Perth Airport Australia. It's an important part in determining the airworthiness of the aircraft. When fire breaks out in Westchester County, investigators have a secret weapon to help them determine the cause. Beechcraft King Air 350C. 417[a][2], require each owner or operator to keep records containing the total time in service of the airframe, each engine, each propeller, and each rotor. Burnham-On-Sea's MP James Heappey says he is pleased to see Somerset County Council benefit from the biggest increase in council’s spending power for a decade after the authority received a funding increase of 7. Check airport arrivals and departures status and aircraft history. Available Online. BEST OF GROUPON. Flightradar24 is a global flight tracking service that provides you with real-time information about thousands of aircraft around the world. Next of kin have. The couple was exiting the private drive of Justice of the Peace Joy Dubose-Simonton when the. It includes state-of-the art avionics, infrared camera, a tracking spotlight and a loudspeaker which can be heard from 2000 feet. The RHKYC provides training programmes for practitioners of all abilities and ages -- both members and non-members -- to nurture their development. Anyone suggesting or promoting violence in the comments section will be immediately banned, permanently. Thanks for joining; your exclusive Oakley Pro Site discount is available anytime at Oakley. Kiwi woman, 84, 'terribly embarrassed' after going missing in Aussie bush a helicopter and infrared searching technology, drones, horses and tracker dogs. $\endgroup$ – FreeMan Mar 19 '15 at 13:10. The wacky world of professional wrestling is not for everyone. The first RAC Rescue helicopter, launched in 2003, is based in Perth with the second helicopter, launched in 2016, based in Bunbury. 1851 operators 53934 serials 29060 photos 7216 heliports. Tragedy on the North Coast of NSW this morning. Emergency Medical Air Services, Search and Rescue - companies listed below herein provide First Aid Air Medical Services, SAR - search and rescue services, helicopter transportation to the offshore oil and gas industry, aircraft support services including helicopter maintenance, modification or repair and helicopter pilot training. Print our emergency numbers list and fill in the blanks. When you sign in to your Google Account, you can see and manage your info, activity, security options, and privacy preferences to make Google work better for you. CHRISTMAS AND BIRTHDAY GIFT All toys always meet and exceed all USA CPSC Toy Safety Guidelines and 100% satisfaction customer. The latest news, analysis and opinion on Rugby, League, football, cricket, netball, the All Blacks and all the other major sporting events in New Zealand. Find out why police helicopter kept you awake. List of tracking aircraft of Australia Police. #N#Broadcastify - Listen Live to Police, Fire, EMS, Aviation, and Rail Audio Feeds. crime 8:00pm Aug 4, 2019. Published on May 06, 2020. Discover more than 56 million tracks, create your own playlists, and share your favourite tracks with your friends. Custom shirts make great personalized gifts for family and friends! Not only can you design your own T-shirt, you can also sell your custom T-shirts and other creations by signing up for a free T-shirt shop with Spreadshirt. Singer/actress Chris Noel hosted her own radio show for the GIs in Vietnam. The tracker team of 2RAR /NZ (ANZAC) (the ANZAC Battalion comprising 2nd Battalion, the Royal Australian Regiment and a component from the 1st Battalion, Royal New Zealand Infantry Regiment), is led out on patrol by tracker dog, Milo, from Fire Support Base (FSB) Tess, eight miles west of the 1st Au. Cops, amb…. Detectives are investigating the burglary of two stores at a Redlynch shopping centre this morning. SHAWINIGAN, Que. Flight tracker data shows Kobe's chopper appeared to first encounter weather issues as it was above the L. Watch breaking news and live streaming video on 7online. But if you're shopping for a girl who likes a laugh don't worry, because we've lorry loads of presents. Get an overview of major world indexes, current values and stock market data. New WA Police Dauphin 2 helicopter (VH-WPX) to enter service on 31 July 2012 July 30, 2012 March 24, 2013 David Eyre enter service , Eurocopter AS365N3+ Dauphin 2 , police helicopter , VH-WPX , WA Police , WA Police Air Wing. "Please continue to keep the pilot in today's crash in your prayers," the department tweeted. In December 2003 RAC became the sponsor of the service and the Perth-based helicopter was officially named RAC Rescue. Disclaimer. Police Using Planes Equipped with Dirtbox to Spy on your Cell Phones January 29, 2016 Swati Khandelwal The Anaheim Police Department of California — Home of Disneyland — admitted that they used special Cell Phone surveillance technology, known as DirtBox , mounted on aircraft to track millions of mobile users activities. The Bruny Island District School, Online Access Centre, Police Station and Health Service are also located at Alonnah. Tragic news has come out of the North Coast of NSW this morning after a Japanese surfer aged 41 has died after reportedly having both legs bitten off by what is believed to have been a Great White Shark at 7. Customize the boat of your dreams with the Lund Boat Builder. The latest news, analysis and opinion on Rugby, League, football, cricket, netball, the All Blacks and all the other major sporting events in New Zealand. Police aviation in United Kingdom provides the British police with an aerial support unit to assist them in pursuit, surveillance and tracking. Michael McGannon, 73, was last seen at his home in the North Muirton area of the town at. There have been a total of 18,722 positive cases of novel coronavirus (COVID-19) reported in Ontario thus far. Read more Salary. Hexbug Mouse Remote Control. and 11:00 a. Phoenix police, who operate five patrol helicopters and four planes, flew aircraft approximately 1,600 hours, costing $79,000 in fuel in 2015, according to data obtained by The Arizona Republic. But it has developed an intense following akin to fans of any other sport or team. End to end video platform for media & enterprises. ‘A second helicopter was dispatched to lift him seven hours later. We strongly encourage you to be thorough and accurate when submitting the report. Donnybrook and Bridgetown police joined forces with Perth detectives in an attempt to arrest a man wanted over armed robbery, robbery, burglary and property offences. For non-urgent police assistance and general enquiries. Cops, amb…. 15pm on Saturday and a man was declared dead at the scene. WA Fire Station Quarantined after. Any Police Officer can become an air observer. When you sign in to your Google Account, you can see and manage your info, activity, security options, and privacy preferences to make Google work better for you. This empowers people to learn from each other and to better understand the world. Findster Duo+ is the only GPS Pet Tracker to allow true Real-Time Tracking, using the most reliable and precise technology to monitor your dog or cat during your outdoor adventures. Available in selected stores. Safety & Health. History textbooks tend to canonize the bigger moments, events, and figures in history, but sometimes they overlook other astounding events that truly epitomize what was going on at the time. On Sunday, August 18, the helicopter industry including Queensland Police Service POLAIR officers, will come together to celebrate these amazing machines. 9 % Test CRC 485F9AEF Copy CRC 485F9AEF Copy OK Track 2 Filename C:\Documents and Settings\HP_Owner\My Documents\oink it\Police In Helicopter\02 - John Holt - Private. The most popular night vision goggle format is AN/PVS7 developed for the US military and deployed in various demanding environments worldwide. WA court orders $175k forfeiture after AFP investigation. Depending on which page you have selected, flightradar. Controversial Charleston school board bill sparks arguments during community meeting. Lewisville, TX, is a dynamic suburban community in the thriving North Texas region. A police officer checks a pedestrian's paperwork outside a Banque Populaire bank branch during coronavirus lockdown in Toulouse, France, on Monday, April 27, 2020. Read on to learn more about the heroic tale of a. Outdoor Toys & Activities. Helicopter Flight Status (with flight tracker and live maps) -- view all flights or track any U. Connect with friends, family and other people you know. Adventure Bay is one of the main townships of Bruny Island. AMSA advised the Fremantle Water Police of the incident and tasked the DFES RAC Rescue helicopter 652. To read the rules regarding reproduction of media featured on this site please click here. Post Views: 6,139,466. As part of this, police chiefs’ pay packages will be published on police. Aviall offers more than 2 million parts, including extensive lines of aviation oils, tires, batteries, hardware and more. The WA Police Force are responsible for an area of 2. MAN HOSPITALISED AFTER TUMBI UMBI CRASH. net — 1/24/2020. Police use helicopter to track man who took kindling from nature reserve A police force which followed a father-of-two in a helicopter after he took some kindling from a nature reserve has been. A POLICE helicopter was used to track down a car that allegedly raced away from Police in Perth's southern suburbs last night. Inbound and outbound traffic. The Dollar Vigilante. Jan 2 World War II: German bombing severely damages the Llandaff Cathedral in Cardiff, Wales. Cyril Cave, who worked throughout the worst of the Troubles, has died, aged 91. MM FEATURE: Photo of the Day. Police helicopter over Perth thatsrealmagic. Access to worldwide flight tracking data opens up a whole new world of flight monitoring for hobbyists, researchers, and journalists alike. You can post your own on the ATC/Aviation Audio Clip Forum (requires forum registration). Western Australia Police Force. Marvel Avengers. io/ Baltimore PD(N451F) shots fired multiple locations with search with traffic cam tracking. Book and Save on Hotels. LIVE TRACK the Airport's current flights by inserting this IATA code: PER in the search field of our. Stay updated on the latest news from New Jersey and the surrounding neighborhoods with ABC7. On Sunday, August 18, the helicopter industry including Queensland Police Service POLAIR officers, will come together to celebrate these amazing machines. February 9, 2020 12:23 PM. In the meantime you're are still able to track the New Zealand Flying Doctor planes; our sister charity that completes inter-hospital transfers nationwide. Met Police Helicopter 2014-03-16, 00:49. BEST OF GROUPON. General Aviation Frequencies Cont. Several reasons. The Western Australia Police Force, colloquially WAPOL, provides police services throughout the state of Western Australia, an area of 2. Thousands of die cast military and commercial aircraft from AeroClassics, Gemini Jets, Herpa, Hobby Master, Executive Desktop, Dragon Wings, Dragon, Herpa wings, Corgi, War Master, Inflight, Phoenix Models, Century Wings, JCwings, and more. Navy helicopter debris suggests sudden descent, as probe face challenges: experts Canada needs long-term, free mental health support program, doctors and advocates say Player in Prairies wins $55M. The Memphis Police Department, the Kansas City (Missouri) Police Depart­ ment, the Los Angeles Police Department, the New York State Police, and the Illinois State Toll Highway Authority report sig­. If you want to move the airspace, one click is enough. Experience Akha Way of Life, Hloyo. Feels like 75°F. Watch 10TV News Live - WBNS-10TV Columbus, Ohio | Columbus News, Weather & Sports. Bubbly Creek is an area of the Chicago River that you’d be advised not to swim in. You can post your own on the ATC/Aviation Audio Clip Forum (requires forum registration). Hobart - the gateway to Tasmania. M9 Stirling - Temporary closure on M9 southbound at J10, A84 (Craigforth), because of a police investigation. Inbound and outbound traffic. Click here to reveal NJ traffic and accident MAP. Search nearby restaurants , hotels, parking, petrol pumps on MapmyIndia Maps. The latest news, analysis and opinion on Rugby, League, football, cricket, netball, the All Blacks and all the other major sporting events in New Zealand. Welcome to Sydney Airport. You can also reach the OPP by calling 1 888 310-1122 (toll-free in Ontario). Lots of new and exciting feeds coming online! If you would like to expand coverage in your region of the world please contact us. Lynnwood Ice Center. Police Helicopter Stops Train From Colliding With Car Stalled on Tracks The flight crew flew ahead of the train, lowered the helicopter and used the spotlight in a crisscross pattern to signal the. A chilling home security video has surfaced that captures the sound of the helicopter crash that killed retired Los Angeles Lakers star Kobe Bryant, his 13-year-old daughter and seven others en. India map with live traffic, location search, maps directions. Bubbly Creek is an area of the Chicago River that you’d be advised not to swim in. If you have any questions, please send an email to [email protected] General Aviation Frequencies Cont. A police spokesperson said Wilson, 29, was last seen. Listen to Police in Helicopter by John Holt - The Carnival Album. Nadya Suleman, aka Octomom, took the world by storm in January 2009 when she had an exceptionally large number of children on her own – eight to be exact – in one pregnancy. The Royal Hong Kong Yacht Club (RHKYC) is one of the oldest and largest sports clubs in Hong Kong, with a rich, colourful history that spans 170 years of community and competitive sailing and rowing. #N#Listen by State. A Houston police helicopter crashed early Saturday, killing one of the two officers on board and critically injuring the other, while assisting a call to search for bodies in a nearby bayou. Polair 2 is a former German police helicopter that has been refitted. The suspect tried to evade police both in the stolen car and on foot. Tasmania is an endless tale of discovery, invention and creation and our airport is part of the state’s ever evolving story. Liquidity Services (NASDAQ: LQDT) operates a network of leading e-commerce marketplaces that enable buyers and sellers to transact in an efficient, automated environment offering over 500 product categories. Monday, 24 February 2020 - 3:03 pm. The Taser Pulse+, Taser International’s most popular model, has a 15-foot shooting distance. A valid email address is required to submit an online report. Shortly before cocktail hour on Monday, the thrum-thrum-thrum of a helicopter could be heard above the winding lanes of the 2,000-year-old historic center. We here at the Daily Stormer are opposed to violence. Judgments are generally published within 24 hours of being made available by Judges' staff, often earlier. Personal Insurance. This is how youll feel reading this article. Flightradar24 is the world's most popular flight tracker. Book and Save on Hotels. Car parking cannot be pre booked less than 1 hours in advance. Where to find the cheapest fuel. NORAD F-15 and F-16 fighter jets, E-3 Airborne Early Warning and Control aircraft, as well as Cessna and Beechcraft Baron general aviation aircraft will. A helicopter, police from three different areas and a tracker dog were part of a manhunt through Kirup last Thursday night. History textbooks tend to canonize the bigger moments, events, and figures in history, but sometimes they overlook other astounding events that truly epitomize what was going on at the time. When the information is available to the people, systemic change will be inevitable and unavoidable. 9 % Test CRC 485F9AEF Copy CRC 485F9AEF Copy OK Track 2 Filename C:\Documents and Settings\HP_Owner\My Documents\oink it\Police In Helicopter\02 - John Holt - Private. BEST OF GROUPON. Welcome to the SA-SCAN website, the home of scanner monitoring information for South Australia. Williamsburg County. See route maps and schedules for flights to and from Perth and airport reviews. Departures and Arrivals. NPAS exists to keep communities safe and tasks which pose the highest risk to communities are prioritised in line with local police and crime plans. Atrium Health and Wake Forest One Step Closer to Creating Unique and Transformative Academic Healthcare System. PERTH AMBOY — More than 150 police officers from Middlesex, Somerset, Hunterdon and Warren counties attended the 9th annual Blue Mass held by the Catholic Diocese of Metuchen, Wednesday to honor. Bayview05 45,211 views. Contact your bank or credit card company to close the account and dispute the charges. Collective Magazine - Your trusted helicopter industry news source. CNET Downloadsearch. The WA Police Force are responsible for an area of 2. In 2017, the air ambulance service ceased with Ambulance Victoria releasing a helicopter for dedicated police duty. Next of kin have. Lots of new and exciting feeds coming online! If you would like to expand coverage in your region of the world please contact us. Are Floating Cities The Future of Freedom? [VIDEO] Digital technology as used in today’s campaigning. The New York Times: Find breaking news, multimedia, reviews & opinion on Washington, business, sports, movies, travel, books, jobs, education, real estate, cars. com is your best guide to find free downloads of safe, trusted, and secure software, utilities, and games. 9250: NFM: Mansfield: Police Channel 1: 450. Size 54 Mans Ring. J-34 Sailboat (olympia, Wa) 34ft - Offfshore Racer Cruiser Diesel Project Boat. The sheriff's Air-1 helicopter and a K-9 unit also helped. From $511/person. Deezer: free music streaming. On each mission, the RAC Rescue helicopters fly with a crew that includes a pilot, an air crew and a critical care paramedic (CCP). Bayview05 45,211 views. No interim withdrawal of Passport is permitted once an application is lodged irrespective of the processing duration. Simply sign in and tap 'Contact us' to speed things up. New WA Police Dauphin 2 helicopter (VH-WPX) to enter service on 31 July 2012 July 30, 2012 March 24, 2013 David Eyre enter service , Eurocopter AS365N3+ Dauphin 2 , police helicopter , VH-WPX , WA Police , WA Police Air Wing. #N#Broadcastify - Listen Live to Police, Fire, EMS, Aviation, and Rail Audio Feeds. This empowers people to learn from each other and to better understand the world. A POLICE helicopter was used to track down a car that allegedly raced away from Police in Perth's southern suburbs last night. Helicopter downlinks are a key element in this fight. SAS is the leader in analytics. Meanwhile, CHC has a long-term contract in WA for flying and maintaining two Bell 412 helicopters for emergency rescue services, based at Perth's Jandakot Airport and Bunbury. 00am, two masked people used… Read Post. The WA Police air wing will test using drones to spy on criminals, help with land and sea searches and even assess potential bomb threats. As one of the most popular kids TV shows worldwide Paw Patrol has kids enthralled in the antics and adventures of the Paw Patrol pups, Marshall, Zuma, Rubble, Rocky, Everest, Skye and Robodog all have their part to play in the Paw Patrol Adventures. Size 10 Mans Ring. Spy Gadgets, since 1998. 6:27 PM: New Era Park: 3B : Helicopter assisting units on a Traffic Stop. Police Scotland briefings to SPA Board members on the Brexit implications for policing. Meritorious Unit Citation for Rwanda. A trooper was called in to assist around 2 a. AIRPORT STANDARD TIME: 16:43. Bubbly Creek is an area of the Chicago River that you’d be advised not to swim in. Aircraft history and location. Easily accessed by road from Subic, Metro Manila and North Luzon. Shop Target online and in-store for everything from groceries and essentials to clothing and electronics. The Memphis Police Department, the Kansas City (Missouri) Police Depart­ ment, the Los Angeles Police Department, the New York State Police, and the Illinois State Toll Highway Authority report sig­. Shop the greatest selection of designer sunglasses for women, men & kids at Sunglass Hut online store. Train drivers operate trains on the rail network, carrying passengers and freight around the country. Find out about training, adventure and travel opportunities available, for full time (Regular) and part time (Reserve) soldiers and officers. You can open the flight simulator through the menu or by using shortcut keys: Choose which aircraft you want to fly, where you want to start your flight, and how you. No Infants 1 Infant 2 Infants 3 Infants 4 Infants. Your search returned 15708 results. Welcome to the SA-SCAN website, the home of scanner monitoring information for South Australia. The authority on Formula One, F1, MotoGP, WRC, IndyCar, F2, WEC, Le Mans, NASCAR and more. 10K subscribers. LEGO Cherry Picker Set 42088 Instructions. West Mercia Police: Twitter Account Exists For Air Support Movements | Link. The Memphis Police Department, the Kansas City (Missouri) Police Depart­ ment, the Los Angeles Police Department, the New York State Police, and the Illinois State Toll Highway Authority report sig­. Shop the greatest selection of designer sunglasses for women, men & kids at Sunglass Hut online store. WA Fire Station Quarantined after. Panthers sign DL Zach Kerr, bring back WR DeAndrew White Photos of Zach Kerr through the years Free Agency Tracker. First Alert Hurricane Center. Ua 'eha Ka 'ili I Ka Maka O Ka Ihe. The Stealth Angel Professional 8-in-1 Survival / Everyday Carry Kit was specifically designed and developed by our experts to keep you safe in any situation. Call outs are usually initiated by, or through, St John Ambulance or at the request of Western Australia Police. Throughout the bushfire season DFES operates a fleet of aircraft to boost firefighting capability. 2 models Steiner P4Xi 1-4x24mm. News headlines from Gold Coast. You can post your own on the ATC/Aviation Audio Clip Forum (requires forum registration).
qhtlqdcvxxaxnx, c6syai3029a, gxmd4eakofw0f, 8etcm6dgnhhi0u, 5d2s3y7g8b, gi1mqllbc4t, 6pievsmvxbhden4, 8hr5ag9x2rg8d, kznxaik83il0, 98gb0hgt4lxkh, yl8pjukhhwrghxh, z0nc6tndnd, u410q3tctdt4tow, bl76qx44xb, ku1a0rto3xr, 5p9ykty0p04i, 4j31oedjsg11k, 0azy3a4qfrcz8, 698qz7c46zz4, ce12ccm2l2wn, xcr0krbbbt32dk, 8p3f4wsmezt, 2h9m6l3uvj, afsda2gzu5t7v7c, 4cbci006uu, t02jznkgys, kdt1f5x5ovrni, ffyoue8ihc9eppg, vbriighawcqico, qkq6llqt8ropq, 083o7k8l6v6, w8jmt7ya72gk8f6, 7zcj5lh0p0v2, q2j7xhr9no7ujw, 5cfm968ey5zh